#TITLE:West Shinjuku Cleaning Tune;
#SUBTITLE:;
#ARTIST:DJ SIMON;
#TITLETRANSLIT:;
#SUBTITLETRANSLIT:;
#ARTISTTRANSLIT:;
#CREDIT:;
#BANNER:West Shinjuku Cleaning Tune-ban.png;
#BACKGROUND:West Shinjuku Cleaning Tune-bg.png;
#LYRICSPATH:;
#CDTITLE:;
#MUSIC:West Shinjuku Cleaning Tune.mp3;
#MUSICLENGTH:106.448;
#OFFSET:-0.010;
#SAMPLESTART:1.715;
#SAMPLELENGTH:15.434;
#SELECTABLE:YES;
#DISPLAYBPM:140.000;
#BPMS:0.000=140.000,147.000=280.000,193.500=210.000,195.000=175.000,195.500=140.000,196.000=70.000,196.550=140.000;
#STOPS:196.550=3.150
;
#BGCHANGES:;
#FIRSTBEAT:7.000;

#LASTBEAT:257.000;

#SONGFILENAME:Songs/EXTRA/West Shinjuku/West Shinjuku Cleaning Tune.sm;

#HASMUSIC:1;

#HASBANNER:1;


//---------------dance-single - BASIC----------------
#NOTES:
     dance-single:
     BASIC:
     easy:
     6:
     0.291,0.451,0.235,0.047,0.005,187.000,25.000,5.000,0.000,0.000:  // measure 1
0000
0000
0000
0000
,  // measure 2
0000
0000
0000
0010
,  // measure 3
0010
1001
0000
0100
,  // measure 4
0100
1001
0000
0001
,  // measure 5
0001
0110
0000
1000
,  // measure 6
1000
0110
0000
0200
,  // measure 7
0300
0200
0300
0020
,  // measure 8
0030
0020
0030
0001
,  // measure 9
0001
0001
0001
1001
,  // measure 10
0000
0000
0000
0000
,  // measure 11
0000
0000
0000
0000
,  // measure 12
0000
0000
0000
0000
,  // measure 13
0000
0000
0000
0000
,  // measure 14
0000
0000
0000
0010
,  // measure 15
1000
0010
0010
0001
,  // measure 16
1000
0100
0100
0010
,  // measure 17
0001
1000
1000
0100
,  // measure 18
0001
0010
0010
0100
,  // measure 19
1000
1100
1100
0001
,  // measure 20
0100
0101
0101
1000
,  // measure 21
0000
1000
0000
1000
,  // measure 22
1000
1000
1001
0001
,  // measure 23
0001
0100
0000
0001
,  // measure 24
0001
0100
0000
0010
,  // measure 25
0010
0100
0000
0010
,  // measure 26
0010
0100
0100
0010
,  // measure 27
1000
0001
0000
0010
,  // measure 28
1000
0100
0000
0010
,  // measure 29
1000
0001
1000
0010
,  // measure 30
0100
0000
1001
0000
0000
0000
1000
1000
,  // measure 31
1000
0000
0001
0000
0000
0000
1000
1000
,  // measure 32
1000
0000
0001
0000
0000
0000
0001
0001
,  // measure 33
0001
0000
0100
0000
0000
0000
0001
0001
,  // measure 34
0001
0100
0000
0010
,  // measure 35
0000
1000
0000
0100
,  // measure 36
0000
0001
0000
1000
,  // measure 37
0001
1000
0001
1000
,  // measure 38
0000
1000
0000
1000
,  // measure 39
0000
1000
0000
0100
,  // measure 40
0000
0100
0000
0100
,  // measure 41
0000
0100
0000
0010
,  // measure 42
0000
0010
0000
0001
,  // measure 43
0000
0001
0000
0010
,  // measure 44
0000
0010
0000
0001
,  // measure 45
0000
0001
0000
0100
,  // measure 46
0000
0001
0000
0100
,  // measure 47
0000
0010
0000
1000
,  // measure 48
0001
1000
0001
1000
,  // measure 49
0002
0000
0000
0000
,  // measure 50
0000
0003
0001
0000
0001
0000
0001
0000
,  // measure 51
0001
0100
1000
0010
,  // measure 52
0001
0100
1000
0001
,  // measure 53
0100
1000
0010
0001
,  // measure 54
0010
1000
0001
0100
,  // measure 55
1000
0000
1001
0000
0100
0100
0100
0000
,  // measure 56
0100
1000
0001
1000
,  // measure 57
0001
0010
0010
0010
,  // measure 58
0100
0100
1001
0000
,  // measure 59
0010
0010
1001
0110
,  // measure 60
0110
1001
0000
1000
,  // measure 61
1000
0101
0010
0001
,  // measure 62
1100
1100
0001
0100
,  // measure 63
1000
1010
0011
1010
,  // measure 64
0011
0000
0000
0000
1000
0000
0000
0001
0000
0000
1000
0000
0001
0000
0000
0000
,  // measure 65
1001
0000
0000
0000
;

//---------------dance-single - ANOTHER----------------
#NOTES:
     dance-single:
     ANOTHER:
     medium:
     7:
     0.403,0.481,0.338,0.169,0.089,246.000,36.000,18.000,0.000,0.000:  // measure 1
0000
0000
0000
0000
,  // measure 2
0000
0000
0000
0000
0000
0000
0000
0000
0000
0000
0000
0000
1000
0000
0000
1000
,  // measure 3
0000
0000
0100
0000
0001
0000
0000
0000
0000
0000
0000
0000
1000
0000
0000
1000
,  // measure 4
0000
0000
0010
0000
0001
0000
0000
0000
0000
0000
0000
0000
0010
0000
0000
0010
,  // measure 5
0000
0000
0100
0000
1000
0000
0000
0000
0000
0000
0000
0000
0010
0000
0000
0010
,  // measure 6
0000
0100
0001
0000
0000
0000
2020
0000
,  // measure 7
3030
0022
0033
2020
,  // measure 8
3030
0022
0033
0110
,  // measure 9
1001
0110
1001
0020
,  // measure 10
0000
0000
0000
0000
,  // measure 11
0000
0000
0000
0030
,  // measure 12
0000
0000
0000
0000
,  // measure 13
0000
0000
0000
0000
,  // measure 14
0000
0000
0000
0000
0000
0000
1000
0100
,  // measure 15
1000
0000
0100
1000
0100
0000
0001
0010
,  // measure 16
0001
0000
0010
0000
0101
0000
1000
0001
,  // measure 17
0100
0000
1000
0001
0100
0000
0010
1000
,  // measure 18
0100
0000
0010
0010
0010
0000
0001
0010
,  // measure 19
0001
0000
1000
0100
1000
0000
0001
0100
,  // measure 20
0001
0010
1100
1001
,  // measure 21
0000
1001
0000
1001
,  // measure 22
1001
0000
0000
0000
1001
0000
0000
0000
0000
0000
0000
0000
0010
0000
0000
0010
,  // measure 23
0000
0000
0001
0000
0100
0000
0000
0000
0000
0000
0000
0000
1000
0000
0000
1000
,  // measure 24
0000
0000
0001
0000
0010
0000
0000
0000
0000
0000
0000
0000
0001
0000
0000
0001
,  // measure 25
0000
0000
0100
0000
1000
0000
0000
0000
0000
0000
0000
0000
0001
0000
0000
0001
,  // measure 26
0000
0000
0010
0000
1000
0000
0000
0000
0011
0000
0000
0000
1000
0000
0000
1000
,  // measure 27
0000
0000
0010
0000
0100
0000
0100
0000
0100
0000
0000
0000
0010
0000
0000
0010
,  // measure 28
0000
1000
0001
0001
0001
0000
1000
1000
,  // measure 29
0100
0100
1000
1000
0100
0100
1000
0000
,  // measure 30
1001
0000
0101
0000
0110
0000
0001
0001
,  // measure 31
0001
0000
1010
0000
0000
0000
1000
1000
,  // measure 32
1000
0000
0011
0000
0000
0000
0010
0010
,  // measure 33
0010
0000
1100
0000
0000
0000
0010
0010
,  // measure 34
0010
0101
0000
0220
,  // measure 35
0330
2002
3003
2100
,  // measure 36
3000
0102
0003
0020
,  // measure 37
0100
0100
0130
0001
,  // measure 38
0001
0001
0001
0001
,  // measure 39
0001
0001
0001
1000
,  // measure 40
1000
1000
1000
1000
,  // measure 41
1000
1000
1000
0010
,  // measure 42
0010
0010
0010
0100
,  // measure 43
0100
0100
0100
0010
,  // measure 44
0010
0010
0010
0100
,  // measure 45
0100
0100
0100
0001
,  // measure 46
0010
0001
1000
0001
,  // measure 47
0100
0001
1000
0010
,  // measure 48
1000
0001
1000
0100
,  // measure 49
2002
0000
0000
0000
,  // measure 50
0000
3003
1000
0000
1000
0000
1000
0000
,  // measure 51
0010
0001
0100
0000
0011
0000
0000
0000
,  // measure 52
0010
1000
0100
0000
1010
0000
1000
0001
,  // measure 53
1000
0000
0110
0000
0000
0000
1000
0100
,  // measure 54
0010
0000
1001
0000
1000
0010
0001
0000
,  // measure 55
0110
0000
0000
0000
1000
0100
0001
0000
,  // measure 56
1001
0010
0100
0010
,  // measure 57
0100
0010
0010
0010
,  // measure 58
0010
0000
0000
0010
0000
0000
0100
0000
0001
0000
0000
0000
0000
0000
0000
0000
,  // measure 59
0010
0000
0000
0010
0000
0000
0100
0000
1000
0000
0000
0000
1000
0000
0000
1000
,  // measure 60
0000
0000
0010
0000
0001
0000
0000
0000
0000
0000
0000
0000
1000
0000
0000
1000
,  // measure 61
0000
0000
0100
0000
0001
0000
0000
0000
0010
0000
0000
0010
0000
0000
0100
0000
,  // measure 62
0001
0000
0000
0000
1100
0000
0000
0000
0010
0000
0000
0010
0000
0000
0100
0000
,  // measure 63
0001
0000
1000
0000
0010
0000
0000
1000
0000
0000
0001
0000
0010
0000
0000
1000
,  // measure 64
0000
0000
0100
0000
0010
0000
0000
0001
0000
0000
1000
0000
0100
0000
0000
0000
,  // measure 65
1001
0000
0000
0000
;

//---------------dance-single - MANIAC----------------
#NOTES:
     dance-single:
     MANIAC:
     hard:
     9:
     0.570,0.664,0.451,0.254,0.141,350.000,48.000,27.000,0.000,0.000:  // measure 1
0000
0000
0000
0000
,  // measure 2
0000
0000
0000
0000
0000
0000
0000
0000
0000
0000
0000
0000
0010
0000
0000
0010
,  // measure 3
0000
0000
0100
0000
0001
0000
0000
0000
1100
0000
0000
0000
0010
0000
0000
0010
,  // measure 4
0000
0000
0100
0000
0001
0000
1000
0000
1000
0000
0000
0000
0010
0000
0000
0010
,  // measure 5
0000
0000
0100
0000
1000
0000
0002
0000
0020
0000
0033
0000
0010
0000
0000
0010
,  // measure 6
0000
0000
0100
0000
1000
0000
0010
1000
0100
0000
1000
0000
0011
0000
0000
0000
,  // measure 7
0100
1010
0100
0011
,  // measure 8
0100
0000
1010
0000
0100
0000
0011
0100
,  // measure 9
1010
0100
0011
0100
1010
0001
2002
0000
,  // measure 10
0000
0000
0000
0000
,  // measure 11
0000
0000
0000
3003
,  // measure 12
0000
0000
0000
0000
,  // measure 13
0000
0000
0000
0000
,  // measure 14
0000
0000
0000
0000
0000
0000
1000
0001
,  // measure 15
1000
0000
0101
0100
0010
0000
1000
0001
,  // measure 16
1000
0000
0000
0000
0101
0000
0000
1000
0010
0000
0000
0000
0001
0000
1000
0000
,  // measure 17
0001
0000
1100
0100
0010
0000
0001
1000
,  // measure 18
0001
0000
1100
0001
0020
0030
0010
0001
,  // measure 19
0200
0000
0310
1000
0001
0000
0010
0001
,  // measure 20
0200
0000
0000
0000
0310
0000
0000
1000
0200
0000
0000
0000
0010
0000
0000
0000
,  // measure 21
0000
0010
0000
0010
,  // measure 22
0010
0000
0000
0000
0010
0000
0300
0000
0110
0000
0000
0000
1000
0000
0000
1000
,  // measure 23
0000
0000
0100
0000
0001
0000
0001
0000
0001
0000
0000
0000
1000
0000
0000
1000
,  // measure 24
0000
0000
0100
0000
0020
0000
0001
0000
0001
0000
0030
0000
1000
0000
0000
1000
,  // measure 25
0000
0000
0001
0000
0001
0000
0100
0000
0010
0000
0000
0000
1000
0000
0000
1000
,  // measure 26
0000
0000
0100
0000
0010
0000
0001
1000
0100
0000
0000
0000
0001
0000
0000
0001
,  // measure 27
0000
0000
1000
0000
0100
0000
0020
0000
0002
0000
0033
0000
0001
0000
0000
0001
,  // measure 28
0000
1000
0200
0010
0010
0300
1010
1000
,  // measure 29
0001
1000
1010
1000
0001
1000
0101
0000
,  // measure 30
1001
0000
2200
0000
3300
0000
0010
1000
,  // measure 31
0100
0000
0000
0000
1010
0000
0000
0001
0100
0000
0000
0000
0010
0000
0001
0000
,  // measure 32
0100
0000
0000
0000
0011
0000
0000
1000
0100
0000
0000
0000
0010
0000
1000
0000
,  // measure 33
0001
0000
0000
0000
1010
0000
0000
0001
0010
0000
0000
0000
0010
0000
0001
0000
,  // measure 34
1000
0000
0000
0000
0011
0000
0000
1000
0010
0000
0000
0000
0102
0000
0000
0000
,  // measure 35
1003
2010
3100
0120
,  // measure 36
0031
2100
3010
0200
,  // measure 37
0002
0300
0020
0003
0002
0030
1003
0010
,  // measure 38
1000
0010
1000
0010
1000
0010
0100
0001
,  // measure 39
0100
0001
0100
0001
0100
0001
0010
0001
,  // measure 40
0010
0001
0010
0001
0010
0001
0010
0100
,  // measure 41
0010
0100
0010
0100
0010
0100
1000
0010
,  // measure 42
1000
0010
1000
0001
1000
0001
1000
0100
,  // measure 43
1000
0100
1000
0001
1000
0001
0100
0001
,  // measure 44
0100
0001
1000
0001
1000
0001
0010
0001
,  // measure 45
0010
0001
1000
0001
1000
0001
1000
0010
,  // measure 46
1000
0001
1000
0100
1000
0001
0100
0001
,  // measure 47
1000
0001
0010
0001
1000
0001
0100
0001
,  // measure 48
0010
0100
1000
0010
0100
0001
0010
0100
,  // measure 49
2002
0000
0000
0000
,  // measure 50
0000
3003
1010
0000
1001
0000
0011
0000
,  // measure 51
1000
0010
1000
0000
0001
0100
0010
0000
,  // measure 52
1000
0100
1000
0000
0101
0000
0010
0001
,  // measure 53
0010
0000
0100
2000
0001
3000
0100
0010
,  // measure 54
0100
0000
0000
0001
0010
0000
0000
0000
0100
0000
1000
0000
0100
0000
0000
0000
,  // measure 55
1100
0000
0001
0000
0010
0000
0000
0000
1000
0000
0010
0000
0100
0000
0000
0001
,  // measure 56
0100
0000
1010
0001
0100
0000
0011
1000
,  // measure 57
0100
1001
0110
1001
,  // measure 58
0010
0000
0000
0010
0000
0000
0100
0000
1000
0000
0001
0100
0001
0000
0000
0000
,  // measure 59
0010
0000
0000
0010
0000
0000
0001
0000
1001
0000
0000
0000
1000
0000
0000
1000
,  // measure 60
0000
0000
0100
0000
0001
0000
1000
0010
0100
0000
0000
0000
1000
0000
0000
1000
,  // measure 61
0000
0000
0001
0000
0101
0010
0000
0000
0001
0000
0000
0001
0000
0000
0100
1000
,  // measure 62
0100
0000
0001
0000
0010
0000
0000
0000
0001
0000
0000
0001
0000
0000
0100
0000
,  // measure 63
0100
0010
1010
1000
1100
0100
0110
0010
,  // measure 64
0011
0001
0101
0000
1001
0000
2100
0000
,  // measure 65
3020
0030
0000
0000
;
